Hane Ame 雨波写真 – 恰巴耶夫 收藏

[套图名称] : Hane Ame 雨波写真 – 恰巴耶夫
[出境模特] : Hane Ame 雨波
[套图尺寸] : 2302x1535
[套图大小] : 12+1P+1V/33.7M
[下载方式] : 百度网盘
[下载地址] : 点此获取下载地址 (VIP会员免积分下载)
下载包内为原版高清套图和视频,绝不含第三方水印!
[在线观看] : 第1段
[套图预览] : Hane Ame 雨波写真 – 恰巴耶夫 封面
[视频名称] : V (1).mp4
[视频尺寸] : 540x720
[视频大小] : 1mp4/1.8M
[视频时长] : 00:00:08
[视频编码] :
Stream #0:1(und): Video: h264 (High) (avc1 / 0x31637661), yuv420p(tv, bt709), 540x720, 1734 kb/s, 29.91 fps, 29.97 tbr, 600 tbn, 1200 tbc (default)
Stream #0:0(und): Audio: aac (LC) (mp4a / 0x6134706D), 44100 Hz, stereo, fltp, 97 kb/s (default)
[视频预览] : Hane Ame 雨波写真 – 恰巴耶夫 第1张

有用 (0)

评论加载中...