[丝慕SMOU]海外版 H006 玉儿 收藏

[套图名称] : [丝慕SMOU]海外版 H006 玉儿
[套图尺寸] : 6000x4000
[套图大小] : 60P+1V/193.8M
[下载方式] : 百度网盘
[下载地址] : 点此获取下载地址 (VIP会员免积分下载)
下载包内为原版高清套图和视频,绝不含第三方水印!
[在线观看] : 第1段
[套图预览] : [丝慕SMOU]海外版 H006 玉儿 第1张
[视频名称] : V.mp4
[视频尺寸] : 1920x1080
[视频大小] : 1mp4/145.8M
[视频时长] : 00:06:10
[视频编码] :
Stream #0:0(eng): Video: h264 (Main) (avc1 / 0x31637661), yuv420p(tv, bt709), 1920x1080, 3107 kb/s, 60 fps, 60 tbr, 60k tbn, 120 tbc (default)
Stream #0:1(eng): Audio: aac (LC) (mp4a / 0x6134706D), 48000 Hz, stereo, fltp, 189 kb/s (default)
[视频预览] : [丝慕SMOU]海外版 H006 玉儿 第1张

有用 (0)

评论加载中...